<?xml version="1.0" standalone="no"?>
<!DOCTYPE svg PUBLIC "-//W3C//DTD SVG 1.1//EN" "http://www.w3.org/Graphics/SVG/1.1/DTD/svg11.dtd">
<svg xmlns="http://www.w3.org/2000/svg">
<defs >
<font id="Ubuntu" horiz-adv-x="602" ><font-face
    font-family="Ubuntu"
    units-per-em="1000"
    panose-1="2 11 5 4 3 6 2 3 2 4"
    ascent="932"
    descent="-189"
    alphabetic="0" />
<glyph unicode=" " glyph-name="space" horiz-adv-x="231" />
<glyph unicode="!" glyph-name="exclam" horiz-adv-x="276" d="M188 505Q188 421 182 353T167 216H109Q100 284 94 352T88 505V693H188V505ZM205 54Q205 27 187 7T138 -13Q107 -13 89 7T71 54Q71 81 89 101T138 121Q169 121 187 101T205 54Z" />
<glyph unicode="&quot;" glyph-name="quotedbl" horiz-adv-x="418" d="M169 760V710Q169 661 163 608T148 501H93Q84 554 78 607T72 711V760H169ZM346 760V710Q346 661 340 608T325 501H270Q261 554 255 607T249 711V760H346Z" />
<glyph unicode="#" glyph-name="numbersign" horiz-adv-x="667" d="M284 510H446L481 693H565L530 510H618V436H515L481 257H618V183H467L432 0H348L383 183H221L186 0H102L137 183H49V257H151L185 436H49V510H200L235 693H319L284 510ZM235 257H397L432 436H270L235
257Z" />
<glyph unicode="$" glyph-name="dollar" horiz-adv-x="564" d="M262 95Q339 95 370 119T401 182Q401 210 388 230T352 265T300 292T239 315Q209 326 180 339T127 372T90 419T75 487Q75 558 117 603T241 661V776H324V664Q368 662 406 653T466 636L447 558Q423 567
387 576T297 586Q237 586 205 563T172 498Q172 475 181 459T209 431T251 408T306 387Q345 372 380 356T441 318T484 264T500 189Q500 118 457 75T324 20V-109H241V17Q171 19 127 32T61 58L86 133Q116 119 158 107T262 95Z" />
<glyph unicode="%" glyph-name="percent" horiz-adv-x="858" d="M50 524Q50 569 62 603T95 660T146 696T209 708Q243 708 272 696T322 661T356 603T368 524Q368 479 356 445T323 388T272 352T209 340Q175 340 146 352T96 387T62 445T50 524ZM290 524Q290 578 269
608T209 639Q170 639 149 609T128 524Q128 470 149 440T209 409Q248 409 269 439T290 524ZM490 169Q490 214 502 248T535 305T586 341T649 353Q683 353 712 341T762 306T796 248T808 169Q808 124 796 90T763 33T712 -3T649 -15Q615 -15 586 -3T536 32T502 90T490
169ZM730 169Q730 223 709 253T649 284Q610 284 589 254T568 169Q568 115 589 85T649 54Q688 54 709 84T730 169ZM670 693L279 0H188L579 693H670Z" />
<glyph unicode="&amp;" glyph-name="ampersand" horiz-adv-x="666" d="M46 184Q46 223 58 253T90 308T138 351T194 384Q120 458 120 537Q120 577 133 609T170 663T226 697T298 709Q338 709 369 697T422 665T455 617T466 558Q466 523 455 495T424 444T379 402T326
368L488 203Q522 266 532 343L609 333Q605 292 589 244T542 147Q577 109 606 72T655 0H557Q545 20 528 41T491 83Q450 42 396 17T272 -9Q207 -9 164 9T95 56T57 119T46 184ZM139 186Q139 168 146 147T169 109T210 80T274 68Q323 68 364 86T438 137L243 334Q225
325 207 313T173 284T149 242T139 186ZM382 555Q382 589 360 612T298 636Q254 636 231 610T207 544Q207 479 275 417Q297 428 316 441T350 471T373 508T382 555Z" />
<glyph unicode="&apos;" glyph-name="quotesingle" horiz-adv-x="241" d="M169 760V710Q169 661 163 608T148 501H93Q84 554 78 607T72 711V760H169Z" />
<glyph unicode="(" glyph-name="parenleft" horiz-adv-x="324" d="M171 299Q171 171 208 62T317 -140L251 -185Q173 -90 126 33T78 299Q78 441 125 564T251 783L317 738Q245 645 208 536T171 299Z" />
<glyph unicode=")" glyph-name="parenright" horiz-adv-x="324" d="M153 299Q153 427 116 536T7 738L73 783Q151 688 198 565T246 299Q246 157 199 34T73 -185L7 -140Q79 -47 116 62T153 299Z" />
<glyph unicode="*" glyph-name="asterisk" horiz-adv-x="480" d="M285 685Q285 643 278 605T262 525Q298 545 333 564T409 597L415 599L443 515L435 512Q395 497 355 493T273 485Q306 457 335 431T389 369L394 362L321 311L317 317Q293 353 276 388T240 462Q222
424 205 389T163 317L159 311L86 362L91 369Q116 404 145 430T207 485Q165 488 125 492T45 512L37 515L65 599L71 597Q112 583 147 564T218 525Q210 566 203 604T195 685V693H285V685Z" />
<glyph unicode="+" glyph-name="plus" horiz-adv-x="564" d="M53 339H242V545H322V339H511V260H322V53H242V260H53V339Z" />
<glyph unicode="," glyph-name="comma" horiz-adv-x="246" d="M178 114Q179 106 179 99T179 83Q179 20 161 -41T110 -159L38 -136Q63 -85 71 -33T79 66Q79 79 79 91T77 114H178Z" />
<glyph unicode="-" glyph-name="hyphen" horiz-adv-x="299" d="M26 343H273V256H26V343Z" />
<glyph unicode="." glyph-name="period" horiz-adv-x="246" d="M190 54Q190 27 172 7T123 -13Q92 -13 74 7T56 54Q56 81 74 101T123 121Q154 121 172 101T190 54Z" />
<glyph unicode="/" glyph-name="slash" horiz-adv-x="384" d="M71 -185H-24L315 783H408L71 -185Z" />
<glyph unicode="0" glyph-name="zero" horiz-adv-x="564" d="M50 347Q50 521 111 615T282 709Q391 709 452 615T514 347Q514 173 453 79T282 -15Q173 -15 112 79T50 347ZM416 347Q416 404 410 455T388 544T346 604T282 627Q244 627 218 605T177 544T155 455T148
347Q148 290 154 239T176 150T218 90T282 67Q320 67 346 89T387 150T409 239T416 347Z" />
<glyph unicode="1" glyph-name="one" horiz-adv-x="564" d="M93 550Q150 572 204 606T303 693H369V0H276V564Q264 553 247 541T209 518T166 497T122 480L93 550Z" />
<glyph unicode="2" glyph-name="two" horiz-adv-x="564" d="M467 516Q467 480 453 447T414 381T360 317T300 255Q283 238 261 215T218 167T185 119T171 79H490V0H70Q69 6 69 12T69 23Q69 70 84 110T125 187T181 255T242 317Q267 341 289 364T329 411T357 460T368
513Q368 543 359 564T333 599T296 619T250 626Q221 626 197 618T154 600T122 578T102 560L56 626Q65 636 83 650T126 678T182 700T249 709Q358 709 412 659T467 516Z" />
<glyph unicode="3" glyph-name="three" horiz-adv-x="564" d="M226 68Q315 68 353 103T392 197Q392 235 376 261T334 302T274 324T203 331H179V407H212Q237 407 263 412T312 430T348 465T362 522Q362 550 352 570T326 603T288 621T242 627Q194 627 161 613T104
584L68 655Q80 663 98 672T140 690T189 703T245 709Q300 709 340 696T406 658T445 600T458 527Q458 473 427 435T352 376Q379 368 404 353T447 315T477 262T489 195Q489 150 474 112T426 45T344 1T228 -15Q202 -15 175 -11T123 -1T81 11T55 21L73 102Q90 94 129
81T226 68Z" />
<glyph unicode="4" glyph-name="four" horiz-adv-x="564" d="M40 240Q59 284 92 342T166 463T255 585T351 693H440V253H522V177H440V0H350V177H40V240ZM350 583Q320 551 290 512T230 429T176 341T130 253H350V583Z" />
<glyph unicode="5" glyph-name="five" horiz-adv-x="564" d="M199 426Q350 420 420 360T491 197Q491 151 476 112T429 45T349 1T235 -15Q209 -15 182 -11T132 -1T91 11T65 21L83 102Q100 94 138 81T233 68Q278 68 308 78T358 105T385 144T394 192Q394 230 381
259T335 309T247 339T108 350Q114 399 117 442T124 526T129 607T133 693H467V614H214Q213 599 211 574T207 521T203 467T199 426Z" />
<glyph unicode="6" glyph-name="six" horiz-adv-x="564" d="M63 278Q63 379 91 456T170 587T295 667T461 696L468 618Q409 617 361 605T274 567T210 500T171 397Q197 409 229 417T297 425Q356 425 397 407T464 360T501 292T513 211Q513 173 500 133T461 60T393
6T296 -15Q182 -15 123 63T63 278ZM287 349Q252 349 222 343T162 323Q161 312 161 301T160 278Q160 234 166 195T187 127T229 80T295 62Q328 62 351 76T389 112T410 159T417 209Q417 277 385 313T287 349Z" />
<glyph unicode="7" glyph-name="seven" horiz-adv-x="564" d="M163 0Q169 80 191 168T247 340T319 495T397 612H60V693H501V616Q468 578 428 512T353 363T292 187T260 0H163Z" />
<glyph unicode="8" glyph-name="eight" horiz-adv-x="564" d="M509 180Q509 138 495 103T452 41T380 0T281 -15Q216 -15 173 3T103 50T66 111T55 175Q55 204 64 230T89 280T125 321T169 354Q71 410 71 519Q71 557 86 591T128 652T195 693T282 709Q338 709 378
692T443 649T480 590T492 528Q492 499 484 474T461 426T428 387T389 357Q507 301 509 180ZM149 174Q149 156 155 137T178 101T219 73T282 62Q316 62 341 72T383 97T407 133T415 174Q415 206 403 230T369 272T315 302T243 324Q198 299 174 262T149 174ZM399 529Q399
544 393 562T372 595T336 621T282 632Q250 632 228 622T191 597T171 563T164 526Q164 504 172 482T197 441T241 407T307 383Q349 408 374 441T399 529Z" />
<glyph unicode="9" glyph-name="nine" horiz-adv-x="564" d="M501 416Q501 210 399 105T94 -2L91 76Q154 76 204 88T293 126T356 195T394 298Q368 286 335 279T267 271Q208 271 167 288T100 335T63 403T51 484Q51 521 64 561T103 634T171 688T268 709Q325 709
368 689T441 631T486 539T501 416ZM277 347Q312 347 343 353T403 373Q404 384 404 394T404 416Q404 459 398 498T377 567T335 614T269 632Q236 632 213 618T175 583T154 536T147 486Q147 418 179 383T277 347Z" />
<glyph unicode=":" glyph-name="colon" horiz-adv-x="246" d="M190 54Q190 27 172 7T123 -13Q92 -13 74 7T56 54Q56 81 74 101T123 121Q154 121 172 101T190 54ZM190 453Q190 426 172 406T123 386Q92 386 74 406T56 453Q56 480 74 500T123 520Q154 520 172 500T190 453Z" />
<glyph unicode=";" glyph-name="semicolon" horiz-adv-x="246" d="M178 114Q179 106 179 99T179 83Q179 20 161 -41T110 -159L38 -136Q63 -85 71 -33T79 66Q79 79 79 91T77 114H178ZM190 453Q190 426 172 406T123 386Q92 386 74 406T56 453Q56 480 74 500T123
520Q154 520 172 500T190 453Z" />
<glyph unicode="&lt;" glyph-name="less" horiz-adv-x="564" d="M156 299L511 153L485 76L53 259V339L485 522L511 445L156 299Z" />
<glyph unicode="=" glyph-name="equal" horiz-adv-x="564" d="M53 232H511V153H53V232ZM53 445H511V366H53V445Z" />
<glyph unicode="&gt;" glyph-name="greater" horiz-adv-x="564" d="M53 445L79 522L511 339V259L79 76L53 153L408 299L53 445Z" />
<glyph unicode="?" glyph-name="question" horiz-adv-x="404" d="M174 631Q108 631 45 597L19 669Q53 687 95 698T186 709Q243 709 279 694T338 654T368 601T377 544Q377 510 364 484T332 434T290 390T248 347T216 298T203 238Q203 233 203 227T204 216H126Q122
236 122 258Q122 290 133 316T163 364T201 406T239 446T268 488T280 536Q280 578 253 604T174 631ZM237 54Q237 27 219 7T170 -13Q139 -13 121 7T103 54Q103 81 121 101T170 121Q201 121 219 101T237 54Z" />
<glyph unicode="@" glyph-name="at" horiz-adv-x="950" d="M690 43Q658 43 637 52T602 76Q580 64 549 56T487 47Q439 47 400 62T331 106T286 179T270 279Q270 327 285 369T329 443T401 493T498 511Q549 511 591 503T657 487V181Q657 149 668 136T697 123Q723 123
742 141T774 188T793 253T799 328Q799 391 777 446T714 544T615 610T483 634Q410 634 349 610T244 540T176 428T151 278Q151 190 177 124T249 13T359 -54T499 -77Q558 -77 596 -70T646 -59L656 -133Q639 -139 595 -146T499 -153Q410 -153 331 -128T193 -50T100
84T65 278Q65 386 99 467T190 601T323 682T483 709Q565 709 638 683T766 606T853 484T885 322Q885 254 870 202T828 115T766 61T690 43ZM490 124Q511 124 532 128T571 142Q568 155 567 168T566 193V428Q560 430 543 432T505 434Q434 434 399 390T364 279Q364 208
398 166T490 124Z" />
<glyph unicode="A" glyph-name="A" horiz-adv-x="663" d="M549 0Q532 45 517 88T486 177H172L109 0H8Q48 110 83 203T151 381T218 541T287 693H376Q412 618 445 542T511 381T580 204T655 0H549ZM458 257Q426 344 395 425T329 582Q294 507 263 426T200 257H458Z" />
<glyph unicode="B" glyph-name="B" horiz-adv-x="643" d="M273 -6Q252 -6 228 -5T179 -2T130 3T86 11V683Q106 688 130 691T178 696T227 699T272 700Q332 700 384 691T475 661T536 604T558 518Q558 461 531 425T459 370Q520 352 556 313T592 203Q592 99 516 47T273
-6ZM182 323V79Q193 78 208 77Q221 76 238 76T279 75Q322 75 360 80T428 100T474 139T492 202Q492 236 479 259T442 297T383 317T307 323H182ZM182 401H284Q320 401 352 406T407 424T444 458T458 511Q458 541 444 561T406 594T348 613T278 619Q241 619 220 618T182
615V401Z" />
<glyph unicode="C" glyph-name="C" horiz-adv-x="620" d="M384 -15Q311 -15 251 9T148 79T82 192T58 347Q58 434 84 501T156 615T261 685T389 709Q432 709 466 703T526 689T568 673T590 661L562 581Q553 587 536 594T498 608T451 619T399 624Q344 624 300 605T225
550T178 463T161 347Q161 285 175 234T219 147T291 90T393 70Q460 70 504 84T570 109L595 29Q588 24 570 17T525 2T462 -10T384 -15Z" />
<glyph unicode="D" glyph-name="D" horiz-adv-x="713" d="M655 347Q655 257 627 191T548 81T426 16T270 -6Q228 -6 178 -3T86 11V683Q127 693 177 696T270 700Q355 700 426 679T548 614T627 504T655 347ZM278 79Q416 79 484 149T552 347Q552 474 484 544T278 615Q237
615 215 614T183 612V82Q192 81 214 80T278 79Z" />
<glyph unicode="E" glyph-name="E" horiz-adv-x="571" d="M86 0V693H509V610H183V404H473V323H183V83H534V0H86Z" />
<glyph unicode="F" glyph-name="F" horiz-adv-x="537" d="M86 0V693H504V610H183V401H468V319H183V0H86Z" />
<glyph unicode="G" glyph-name="G" horiz-adv-x="672" d="M509 341H606V17Q594 13 572 8T520 -2T455 -10T384 -14Q311 -14 251 10T148 80T82 193T58 347Q58 434 84 501T156 615T261 685T391 709Q438 709 474 703T537 689T579 673T602 661L571 580Q542 599 494
611T396 624Q343 624 300 605T226 550T178 463T161 347Q161 285 175 234T219 147T292 90T395 70Q437 70 466 74T509 83V341Z" />
<glyph unicode="H" glyph-name="H" horiz-adv-x="705" d="M522 693H619V0H522V320H183V0H86V693H183V404H522V693Z" />
<glyph unicode="I" glyph-name="I" horiz-adv-x="269" d="M86 693H183V0H86V693Z" />
<glyph unicode="J" glyph-name="J" horiz-adv-x="500" d="M419 223Q419 173 409 130T372 55T301 4T189 -15Q155 -15 127 -10T75 4T35 22T8 41L46 118Q67 103 100 87T184 70Q256 70 289 106T322 232V693H419V223Z" />
<glyph unicode="K" glyph-name="K" horiz-adv-x="629" d="M599 693Q568 659 529 618T448 533T363 447T284 369Q327 339 375 295T469 201T555 99T623 0H509Q479 47 440 94T358 185T270 266T183 329V0H86V693H183V387Q218 420 260 461T343 545T420 625T482 693H599Z" />
<glyph unicode="L" glyph-name="L" horiz-adv-x="519" d="M503 84V0H86V693H183V84H503Z" />
<glyph unicode="M" glyph-name="M" horiz-adv-x="871" d="M397 96Q387 120 371 157T335 237T295 325T254 411T219 484T192 533Q181 415 174 278T162 0H67Q71 90 76 181T87 361T101 534T118 693H203Q230 649 261 589T323 464T383 333T436 213Q460 267 489 332T549
463T611 589T669 693H754Q788 358 805 0H710Q705 140 698 277T680 533Q670 516 654 484T618 412T578 326T537 237T502 157T475 96H397Z" />
<glyph unicode="N" glyph-name="N" horiz-adv-x="728" d="M561 0Q539 37 511 83T449 178T381 279T310 377T242 467T181 541V0H86V693H163Q210 643 263 577T369 440T468 301T547 180V693H642V0H561Z" />
<glyph unicode="O" glyph-name="O" horiz-adv-x="778" d="M58 347Q58 436 84 504T156 617T262 686T391 709Q458 709 517 686T622 618T693 504T720 347Q720 258 694 190T622 77T518 8T391 -15Q323 -15 263 8T157 76T85 190T58 347ZM160 347Q160 284 176 233T221
145T293 90T389 70Q442 70 484 89T555 145T601 232T617 347Q617 410 601 461T556 549T484 604T389 624Q336 624 294 605T222 549T176 462T160 347Z" />
<glyph unicode="P" glyph-name="P" horiz-adv-x="608" d="M270 700Q416 700 494 645T573 479Q573 419 552 377T490 308T391 269T260 257H183V0H86V683Q127 693 177 696T270 700ZM278 615Q216 615 183 612V340H256Q306 340 346 346T413 368T456 411T471 480Q471
520 456 546T414 587T352 609T278 615Z" />
<glyph unicode="Q" glyph-name="Q" horiz-adv-x="778" d="M58 347Q58 436 84 504T156 617T262 686T391 709Q458 709 517 686T622 618T693 504T720 347Q720 269 700 208T645 103T562 31T460 -7Q461 -30 480 -47T530 -77T597 -97T671 -109L648 -185Q596 -178 549
-167T463 -136T398 -88T363 -14Q300 -10 244 15T147 86T82 197T58 347ZM160 347Q160 284 176 233T221 145T293 90T389 70Q442 70 484 89T555 145T601 232T617 347Q617 410 601 461T556 549T484 604T389 624Q336 624 294 605T222 549T176 462T160 347Z" />
<glyph unicode="R" glyph-name="R" horiz-adv-x="629" d="M425 290Q441 270 465 238T516 166T567 83T611 0H505Q485 38 462 77T414 151T367 218T324 272Q311 271 298 271T270 271H183V0H86V683Q127 693 177 696T270 700Q416 700 492 645T569 481Q569 412 533 363T425
290ZM278 615Q216 615 183 612V351H252Q302 351 342 356T409 375T452 414T467 482Q467 521 452 547T412 588T352 609T278 615Z" />
<glyph unicode="S" glyph-name="S" horiz-adv-x="532" d="M247 69Q399 69 399 173Q399 205 386 227T349 266T297 295T234 319Q196 332 162 348T103 387T64 441T49 516Q49 607 111 658T282 709Q345 709 396 696T472 666L441 587Q420 600 379 612T282 625Q254 625
230 619T188 601T160 571T149 527Q149 499 160 480T191 447T237 420T296 396Q341 378 378 360T443 317T486 258T501 174Q501 83 435 34T247 -15Q206 -15 172 -10T110 3T64 19T33 34L62 114Q85 101 132 85T247 69Z" />
<glyph unicode="T" glyph-name="T" horiz-adv-x="565" d="M549 693V609H331V0H234V609H16V693H549Z" />
<glyph unicode="U" glyph-name="U" horiz-adv-x="688" d="M344 -15Q276 -15 226 6T144 63T97 150T81 258V693H178V269Q178 165 224 118T344 71Q381 71 411 82T464 118T498 179T510 269V693H607V258Q607 200 592 150T544 64T462 6T344 -15Z" />
<glyph unicode="V" glyph-name="V" horiz-adv-x="656" d="M646 693Q608 583 574 490T506 312T441 152T374 0H283Q249 75 217 151T151 312T82 489T10 693H117Q171 535 223 389T330 115Q385 242 437 388T542 693H646Z" />
<glyph unicode="W" glyph-name="W" horiz-adv-x="929" d="M465 470Q423 336 380 222T294 0H197Q144 153 104 323T28 693H130Q144 615 159 537T190 386T222 245T255 121Q295 226 340 351T424 611H508Q547 477 593 352T679 121Q695 177 711 244T742 384T773 536T802
693H901Q865 493 825 323T732 0H635Q591 108 549 222T465 470Z" />
<glyph unicode="X" glyph-name="X" horiz-adv-x="631" d="M502 0Q487 30 466 66T420 142T368 221T316 296Q291 261 264 222T213 143T167 67T130 0H23Q68 88 127 179T254 366L32 693H144L315 435L484 693H595L377 370Q445 273 505 181T611 0H502Z" />
<glyph unicode="Y" glyph-name="Y" horiz-adv-x="598" d="M251 0V278Q182 385 121 489T6 693H120Q158 611 205 527T302 364Q351 442 398 526T484 693H592Q538 593 477 490T348 280V0H251Z" />
<glyph unicode="Z" glyph-name="Z" horiz-adv-x="573" d="M526 616Q503 590 473 554T408 473T338 379T268 279T202 178T146 83H536V0H33V65Q54 105 82 153T143 251T211 352T280 450T347 538T407 610H51V693H526V616Z" />
<glyph unicode="[" glyph-name="bracketleft" horiz-adv-x="329" d="M96 783H321V710H183V-112H321V-185H96V783Z" />
<glyph unicode="\" glyph-name="backslash" horiz-adv-x="384" d="M-24 783H69L408 -185H313L-24 783Z" />
<glyph unicode="]" glyph-name="bracketright" horiz-adv-x="329" d="M233 -185H8V-112H146V710H8V783H233V-185Z" />
<glyph unicode="^" glyph-name="asciicircum" horiz-adv-x="564" d="M323 693L517 353L443 315L282 597L121 315L47 353L241 693H323Z" />
<glyph unicode="_" glyph-name="underscore" horiz-adv-x="492" d="M-4 -106H496V-185H-4V-106Z" />
<glyph unicode="`" glyph-name="grave" horiz-adv-x="376" d="M121 776L249 622L202 580L61 717L121 776Z" />
<glyph unicode="a" glyph-name="a" horiz-adv-x="522" d="M256 67Q289 67 314 68T357 74V229Q347 234 325 237T270 241Q249 241 226 238T183 226T150 200T137 156Q137 106 169 87T256 67ZM248 533Q304 533 342 519T404 478T438 415T448 334V9Q436 7 415 4T366
-3T308 -8T245 -11Q201 -11 164 -2T100 26T58 78T43 155Q43 198 60 229T108 279T178 307T262 316Q276 316 291 315T319 311T343 306T357 303V329Q357 352 352 374T334 414T299 442T240 453Q194 453 160 447T108 433L97 510Q115 518 157 525T248 533Z" />
<glyph unicode="b" glyph-name="b" horiz-adv-x="589" d="M173 497Q190 508 224 520T304 532Q360 532 403 512T477 456T522 370T538 260Q538 197 520 147T467 61T385 7T277 -12Q212 -12 162 -3T80 15V760L173 776V497ZM173 81Q187 77 212 74T276 70Q351 70 396
119T441 260Q441 300 433 335T407 395T361 435T292 450Q254 450 222 437T173 410V81Z" />
<glyph unicode="c" glyph-name="c" horiz-adv-x="465" d="M306 -12Q243 -12 196 8T116 64T67 149T51 259Q51 319 68 369T118 455T196 512T300 533Q335 533 370 527T437 508L416 429Q395 439 368 445T309 451Q231 451 190 402T148 259Q148 217 157 182T187 122T240
84T318 70Q355 70 385 77T432 92L445 14Q437 9 422 5T388 -3T348 -9T306 -12Z" />
<glyph unicode="d" glyph-name="d" horiz-adv-x="589" d="M416 410Q399 424 367 437T297 450Q257 450 229 436T182 396T156 335T148 260Q148 169 193 120T313 70Q351 70 376 73T416 81V410ZM416 760L509 776V15Q477 6 427 -3T312 -12Q252 -12 204 7T122 61T70
146T51 260Q51 320 66 370T112 456T185 512T285 532Q330 532 364 520T416 497V760Z" />
<glyph unicode="e" glyph-name="e" horiz-adv-x="559" d="M51 259Q51 328 71 379T124 465T200 516T288 533Q393 533 449 468T505 268Q505 262 505 253T504 235H148Q154 154 195 112T323 70Q372 70 405 78T456 95L469 17Q452 8 410 -2T313 -12Q245 -12 196 8T114
65T67 150T51 259ZM408 310Q409 373 377 413T287 454Q255 454 231 442T189 409T163 363T150 310H408Z" />
<glyph unicode="f" glyph-name="f" horiz-adv-x="386" d="M283 776Q324 776 353 770T395 759L378 679Q366 685 344 690T290 696Q225 696 199 661T173 565V520H373V442H173V0H80V567Q80 667 129 721T283 776Z" />
<glyph unicode="g" glyph-name="g" horiz-adv-x="578" d="M406 52Q394 44 360 32T279 19Q232 19 191 34T118 80T69 159T51 271Q51 328 68 375T117 457T197 511T303 531Q368 531 416 522T498 504V40Q498 -80 436 -134T248 -188Q199 -188 156 -180T80 -161L97 -80Q125
-91 165 -99T250 -108Q333 -108 369 -75T406 30V52ZM405 438Q391 442 368 445T304 449Q229 449 189 400T148 270Q148 225 159 193T190 140T235 109T288 99Q325 99 356 109T405 134V438Z" />
<glyph unicode="h" glyph-name="h" horiz-adv-x="571" d="M80 0V760L173 776V510Q199 520 228 525T287 531Q349 531 390 514T455 465T490 389T500 292V0H407V272Q407 320 401 354T379 409T339 439T277 449Q262 449 246 447T216 443T190 437T173 432V0H80Z" />
<glyph unicode="i" glyph-name="i" horiz-adv-x="253" d="M173 0H80V520H173V0ZM126 614Q101 614 84 630T66 675Q66 703 83 719T126 736Q151 736 168 720T186 675Q186 647 169 631T126 614Z" />
<glyph unicode="j" glyph-name="j" horiz-adv-x="253" d="M-5 -187Q-17 -187 -36 -184T-68 -176L-56 -100Q-46 -103 -33 -105T-9 -107Q39 -107 59 -78T80 9V520H173V10Q173 -90 128 -138T-5 -187ZM126 614Q101 614 84 630T66 675Q66 703 83 719T126 736Q151 736
168 720T186 675Q186 647 169 631T126 614Z" />
<glyph unicode="k" glyph-name="k" horiz-adv-x="522" d="M268 286Q298 263 331 229T397 156T459 76T508 0H399Q378 35 351 71T293 141T232 203T173 250V0H80V760L173 776V302Q197 326 226 355T283 414T336 471T379 520H488Q465 495 438 465T382 405T324 344T268 286Z" />
<glyph unicode="l" glyph-name="l" horiz-adv-x="273" d="M236 -10Q150 -8 114 27T78 136V760L171 776V151Q171 128 175 113T188 89T212 76T249 68L236 -10Z" />
<glyph unicode="m" glyph-name="m" horiz-adv-x="861" d="M80 505Q112 513 164 522T286 531Q336 531 370 518T427 478Q434 483 449 492T486 509T535 524T593 531Q653 531 691 514T750 464T779 388T787 292V0H694V272Q694 318 690 351T673 406T639 438T583 449Q536
449 506 437T464 414Q472 388 476 357T480 292V0H387V272Q387 318 382 351T365 406T331 438T276 449Q262 449 246 448T216 446T189 442T173 439V0H80V505Z" />
<glyph unicode="n" glyph-name="n" horiz-adv-x="574" d="M80 505Q112 513 165 522T287 531Q349 531 390 514T455 465T490 389T500 292V0H407V272Q407 320 401 354T379 409T339 439T277 449Q262 449 246 448T216 446T190 442T173 439V0H80V505Z" />
<glyph unicode="o" glyph-name="o" horiz-adv-x="590" d="M539 260Q539 198 521 148T471 62T393 7T295 -13Q242 -13 197 6T120 62T69 148T51 260Q51 321 69 371T119 458T197 513T295 533Q348 533 393 514T470 458T521 372T539 260ZM442 260Q442 348 403 399T295
451Q227 451 188 400T148 260Q148 172 187 121T295 69Q363 69 402 120T442 260Z" />
<glyph unicode="p" glyph-name="p" horiz-adv-x="589" d="M441 259Q441 350 396 399T276 448Q234 448 211 445T173 438V110Q190 96 222 83T292 70Q332 70 360 84T407 124T433 184T441 259ZM538 259Q538 200 523 150T477 64T404 8T304 -12Q259 -12 225 0T173 23V-185H80V504Q113
512 162 521T277 531Q337 531 385 512T467 458T519 373T538 259Z" />
<glyph unicode="q" glyph-name="q" horiz-adv-x="589" d="M148 259Q148 219 156 185T182 125T228 85T297 70Q335 70 367 83T416 110V438Q402 442 379 445T313 448Q238 448 193 399T148 259ZM51 259Q51 322 69 372T122 458T204 512T312 531Q377 531 426 522T509
504V-185H416V23Q399 12 365 0T285 -12Q229 -12 186 8T112 64T67 150T51 259Z" />
<glyph unicode="r" glyph-name="r" horiz-adv-x="386" d="M272 531Q284 531 299 530T330 526T357 521T376 516L360 435Q349 439 324 444T258 450Q232 450 207 445T173 437V0H80V498Q113 510 162 520T272 531Z" />
<glyph unicode="s" glyph-name="s" horiz-adv-x="446" d="M201 67Q258 67 285 82T313 130Q313 164 286 184T197 229Q167 241 140 253T92 283T60 324T48 383Q48 452 99 492T238 533Q260 533 282 531T323 525T356 517T379 510L362 430Q347 438 315 446T238 455Q199
455 170 440T141 391Q141 374 147 361T167 338T201 318T249 299Q286 285 315 272T364 240T396 197T407 134Q407 62 354 25T201 -12Q132 -12 93 -1T40 17L57 97Q73 91 108 79T201 67Z" />
<glyph unicode="t" glyph-name="t" horiz-adv-x="402" d="M167 520H364V442H167V202Q167 163 173 138T191 98T221 77T263 71Q305 71 330 80T366 94L384 17Q370 10 335 0T255 -11Q202 -11 168 2T112 43T83 109T74 201V665L167 681V520Z" />
<glyph unicode="u" glyph-name="u" horiz-adv-x="574" d="M494 15Q462 7 410 -2T288 -11Q228 -11 187 6T121 56T85 131T74 228V520H167V248Q167 153 197 112T298 71Q313 71 329 72T359 74T384 77T401 81V520H494V15Z" />
<glyph unicode="v" glyph-name="v" horiz-adv-x="502" d="M486 520Q447 374 395 240T293 0H209Q160 106 108 240T16 520H116Q128 471 144 416T179 306T217 200T253 109Q270 149 289 200T326 305T361 415T390 520H486Z" />
<glyph unicode="w" glyph-name="w" horiz-adv-x="777" d="M505 0Q477 72 446 164T388 357Q362 257 331 165T272 0H191Q145 103 101 235T18 520H118Q128 473 142 418T171 308T204 202T236 113Q253 160 269 212T301 318T329 423T353 520H430Q439 475 452 424T480
319T511 213T545 113Q560 151 576 202T609 308T639 418T663 520H759Q720 367 676 235T586 0H505Z" />
<glyph unicode="x" glyph-name="x" horiz-adv-x="511" d="M391 0Q380 22 364 49T329 104T290 161T251 214Q232 189 212 161T174 104T139 48T112 0H16Q51 68 99 138T196 273L24 520H129L253 338L378 520H477L309 279Q357 214 407 142T493 0H391Z" />
<glyph unicode="y" glyph-name="y" horiz-adv-x="497" d="M19 -97Q30 -102 47 -106T82 -111Q137 -111 168 -87T224 -7Q161 113 107 247T16 520H116Q127 475 142 423T177 316T218 206T264 100Q302 205 330 308T383 520H479Q443 373 399 238T304 -16Q284 -61 263
-93T215 -147T157 -178T83 -188Q72 -188 60 -187T37 -183T16 -177T2 -172L19 -97Z" />
<glyph unicode="z" glyph-name="z" horiz-adv-x="471" d="M425 450Q404 427 370 385T296 292T217 185T147 78H433V0H36V62Q60 106 95 159T168 264T243 363T307 442H50V520H425V450Z" />
<glyph unicode="{" glyph-name="braceleft" horiz-adv-x="333" d="M40 335Q64 335 81 343T109 365T126 396T132 432V612Q132 653 141 685T172 738T230 771T321 783H325V710Q268 710 244 690T219 611V457Q219 391 202 355T152 299Q184 279 201 243T219 141V-13Q219
-71 243 -91T325 -112V-185H321Q267 -185 231 -174T172 -141T141 -87T132 -14V166Q132 184 127 201T110 232T81 254T40 263V335Z" />
<glyph unicode="|" glyph-name="bar" horiz-adv-x="279" d="M96 783H183V-185H96V783Z" />
<glyph unicode="}" glyph-name="braceright" horiz-adv-x="333" d="M293 263Q269 263 252 255T224 233T207 202T201 166V-14Q201 -55 192 -87T161 -141T103 -174T12 -185H8V-112Q65 -112 89 -92T114 -13V141Q114 207 131 243T181 299Q149 319 132 355T114 457V611Q114
669 90 689T8 710V783H12Q66 783 102 772T161 739T192 685T201 612V432Q201 414 206 397T223 366T252 344T293 335V263Z" />
<glyph unicode="~" glyph-name="asciitilde" horiz-adv-x="564" d="M520 357Q516 337 508 313T483 268T443 232T383 217Q353 217 328 229T279 255Q252 271 227 286T174 302Q158 302 147 295T128 276T115 251T106 224L42 242Q46 261 55 285T79 331T119 367T179
382Q209 382 234 370T283 344Q310 328 335 313T388 297Q404 297 415 304T434 323T447 348T456 375L520 357Z" />
<glyph unicode="&#xa0;" glyph-name="uni00A0" horiz-adv-x="231" />
<glyph unicode="&#xa1;" glyph-name="exclamdown" horiz-adv-x="276" d="M88 2Q88 86 94 154T109 291H167Q176 223 182 155T188 2V-185H88V2ZM71 453Q71 480 89 500T138 520Q169 520 187 500T205 453Q205 426 187 406T138 386Q107 386 89 406T71 453Z" />
<glyph unicode="&#xa2;" glyph-name="cent" horiz-adv-x="564" d="M86 291Q86 340 99 383T137 460T198 517T279 549V693H362V554Q420 551 472 531L451 454Q430 463 403 469T344 475Q266 475 225 428T183 291Q183 251 192 218T222 160T275 123T353 110Q390 110
420 117T467 131L480 55Q466 47 432 40T362 30V-109H279V35Q231 44 195 66T135 122T99 199T86 291Z" />
<glyph unicode="&#xa3;" glyph-name="sterling" horiz-adv-x="564" d="M246 373H435V298H246V290Q246 240 242 185T230 80H519V0H125Q136 71 144 141T153 283V298H60V373H153V456Q153 530 168 578T212 655T281 695T369 706Q413 706 443 698T501 679L478 599Q425
624 365 624Q338 624 316 616T279 589T255 538T246 458V373Z" />
<glyph unicode="&#xa4;" glyph-name="currency" horiz-adv-x="564" d="M89 347Q89 408 117 453L44 527L102 585L176 510Q223 539 282 539Q341 539 387 510L462 585L520 527L446 453Q460 431 467 405T475 347Q475 315 468 289T446 241L520 167L462 109L387 183Q339
155 282 155Q253 155 226 162T176 183L102 109L44 167L117 240Q89 285 89 347ZM400 347Q400 375 391 398T365 437T328 462T282 471Q258 471 237 463T199 438T174 398T164 347Q164 318 173 296T199 257T236 232T282 223Q306 223 327 231T365 256T390 295T400 347Z"
/>
<glyph unicode="&#xa5;" glyph-name="yen" horiz-adv-x="564" d="M237 0V106H75V177H237V279H75V350H211Q157 438 109 524T17 693H120Q156 615 198 537T285 387Q329 459 369 537T447 693H548Q504 610 456 524T353 350H490V279H328V177H490V106H328V0H237Z" />
<glyph unicode="&#xa6;" glyph-name="brokenbar" horiz-adv-x="279" d="M96 198H183V-185H96V198ZM96 783H183V400H96V783Z" />
<glyph unicode="&#xa7;" glyph-name="section" horiz-adv-x="492" d="M68 -1Q98 -14 134 -23T226 -32Q282 -32 310 -16T339 37Q339 72 312 91T221 133Q185 145 153 159T96 193T57 241T43 309Q43 335 51 357T72 398T101 430T132 453Q107 473 93 499T78 559Q78 628
126 668T263 709Q314 709 358 699T428 681L407 604Q383 613 349 623T262 633Q223 633 195 617T166 567Q166 549 172 537T191 514T224 494T272 476Q308 464 340 450T397 416T436 368T450 300Q450 275 442 253T422 213T395 181T364 157Q393 136 411 108T429 43Q429
-32 376 -70T225 -109Q158 -109 115 -99T45 -75L68 -1ZM220 408Q213 410 207 412T193 418Q164 399 146 374T128 318Q128 292 139 275T171 244T220 220T281 198Q286 196 290 195T300 191Q329 210 347 235T365 291Q365 317 354 334T322 365T276 388T220 408Z" />
<glyph unicode="&#xa8;" glyph-name="dieresis" horiz-adv-x="376" d="M93 616Q70 616 53 632T35 675Q35 701 52 717T93 734Q116 734 133 718T151 675Q151 649 134 633T93 616ZM283 616Q260 616 243 632T225 675Q225 701 242 717T283 734Q306 734 323 718T341
675Q341 649 324 633T283 616Z" />
<glyph unicode="&#xa9;" glyph-name="copyright" horiz-adv-x="814" d="M749 347Q749 262 721 195T646 81T537 10T407 -15Q339 -15 277 9T168 80T93 194T65 347Q65 432 93 499T168 613T277 684T407 709Q475 709 537 685T646 614T721 500T749 347ZM676 347Q676
413 656 467T601 561T516 621T407 642Q348 642 299 621T214 561T158 468T138 347Q138 281 158 227T213 133T298 73T407 52Q466 52 515 73T600 133T656 226T676 347ZM419 140Q376 140 341 154T281 194T241 258T227 347Q227 396 242 434T284 498T345 539T419 553Q445
553 466 549T504 540T530 529T545 520L522 460Q510 467 484 476T422 486Q371 486 337 451T303 347Q303 285 334 246T425 206Q464 206 489 214T529 230L548 170Q543 167 532 162T503 152T465 144T419 140Z" />
<glyph unicode="&#xaa;" glyph-name="ordfeminine" horiz-adv-x="389" d="M196 391Q218 391 240 392T267 395V495Q256 497 239 498T206 499Q189 499 172 497T140 489T117 473T108 446Q108 416 131 404T196 391ZM189 706Q230 706 258 696T303 668T328 625T336 567V343Q312
338 271 334T189 329Q156 329 129 335T81 356T50 392T38 446Q38 477 51 499T86 534T137 554T198 560Q212 560 229 559T267 555V558Q267 573 264 588T252 614T227 633T185 641Q162 641 135 638T87 628L77 691Q96 696 126 701T189 706Z" />
<glyph unicode="&#xab;" glyph-name="guillemotleft" horiz-adv-x="499" d="M30 284L186 505L251 470L140 284L251 98L186 63L30 284ZM238 284L394 505L459 470L348 284L459 98L394 63L238 284Z" />
<glyph unicode="&#xac;" glyph-name="logicalnot" horiz-adv-x="564" d="M511 394V53H431V315H53V394H511Z" />
<glyph unicode="&#xad;" glyph-name="uni00AD" horiz-adv-x="299" d="M26 343H273V256H26V343Z" />
<glyph unicode="&#xae;" glyph-name="registered" horiz-adv-x="814" d="M749 347Q749 262 721 195T646 81T537 10T407 -15Q339 -15 277 9T168 80T93 194T65 347Q65 432 93 499T168 613T277 684T407 709Q475 709 537 685T646 614T721 500T749 347ZM676 347Q676
413 656 467T601 561T516 621T407 642Q348 642 299 621T214 561T158 468T138 347Q138 281 158 227T213 133T298 73T407 52Q466 52 515 73T600 133T656 226T676 347ZM506 148Q483 193 455 233T405 298H338V148H267V536Q294 542 324 545T379 548Q465 548 510 516T555
419Q555 382 536 355T480 312Q490 300 503 282T530 242T558 196T583 148H506ZM338 356H376Q421 356 451 368T481 420Q481 457 453 471T384 486Q373 486 361 486T338 484V356Z" />
<glyph unicode="&#xaf;" glyph-name="overscore" horiz-adv-x="376" d="M46 711H330V639H46V711Z" />
<glyph unicode="&#xb0;" glyph-name="degree" horiz-adv-x="332" d="M306 637Q306 605 295 579T264 535T220 508T166 498Q138 498 113 507T68 535T38 579T26 637Q26 669 37 695T68 739T112 766T166 776Q194 776 219 767T264 739T294 695T306 637ZM239 637Q239
672 218 692T166 713Q136 713 115 693T93 637Q93 602 114 582T166 561Q196 561 217 581T239 637Z" />
<glyph unicode="&#xb1;" glyph-name="plusminus" horiz-adv-x="564" d="M53 419H242V620H322V419H511V340H322V139H242V340H53V419ZM53 79H511V0H53V79Z" />
<glyph unicode="&#xb2;" glyph-name="twosuperior" horiz-adv-x="359" d="M296 598Q296 577 287 557T261 518T224 479T179 438Q162 424 146 408T126 378H312V315H46Q43 348 50 373T72 420T106 458T146 494Q180 523 201 547T223 596Q223 622 207 634T161 646Q144
646 129 642T102 631T81 618T66 607L30 656Q47 674 81 691T161 709Q230 709 263 680T296 598Z" />
<glyph unicode="&#xb3;" glyph-name="threesuperior" horiz-adv-x="359" d="M144 369Q197 369 217 385T237 428Q237 445 228 457T204 476T168 487T127 491H108V548H133Q147 548 162 550T190 559T211 575T219 601Q219 626 201 636T153 647Q126 647 103 638T63 620L38
675Q54 686 87 697T155 709Q228 709 258 680T289 604Q289 555 234 524Q269 513 289 488T310 427Q310 401 301 380T272 342T221 316T145 307Q114 307 82 314T32 330L47 390Q69 382 93 376T144 369Z" />
<glyph unicode="&#xb4;" glyph-name="acute" horiz-adv-x="376" d="M315 717L174 580L127 622L255 776L315 717Z" />
<glyph unicode="&#xb5;" glyph-name="mu" horiz-adv-x="580" d="M173 520V242Q173 147 204 109T304 71Q319 71 335 72T365 74T390 77T407 81V520H500V15Q468 7 418 -2T307 -11Q252 -11 220 0T167 34Q170 6 171 -22T172 -82V-185H80V520H173Z" />
<glyph unicode="&#xb6;" glyph-name="paragraph" horiz-adv-x="646" d="M386 623Q378 623 370 623T356 621V-185H278V262Q167 273 105 325T43 479Q43 534 65 575T130 644T232 686T366 700Q408 700 456 697T545 683V-185H467V618Q453 620 432 621T386 623Z" />
<glyph unicode="&#xb7;" glyph-name="middot" horiz-adv-x="246" d="M190 294Q190 267 172 247T123 227Q92 227 74 247T56 294Q56 321 74 341T123 361Q154 361 172 341T190 294Z" />
<glyph unicode="&#xb8;" glyph-name="cedilla" horiz-adv-x="376" d="M199 -37Q228 -51 241 -67T254 -116Q254 -127 249 -140T232 -164T200 -182T151 -189Q125 -189 104 -185T69 -176L80 -119Q92 -123 105 -126T136 -129Q172 -129 172 -106Q172 -95 161 -88T130
-72L123 -69Q126 -59 132 -46T144 -19T155 4T164 20H228Q222 9 213 -8T199 -37Z" />
<glyph unicode="&#xb9;" glyph-name="onesuperior" horiz-adv-x="359" d="M50 621Q88 634 125 654T189 701H238V315H168V609Q146 595 118 584T69 567L50 621Z" />
<glyph unicode="&#xba;" glyph-name="ordmasculine" horiz-adv-x="446" d="M403 518Q403 475 390 440T352 380T295 342T223 328Q184 328 151 341T94 380T57 440T43 518Q43 561 56 596T94 656T151 694T223 708Q262 708 295 695T352 657T389 597T403 518ZM329 518Q329
574 302 607T223 641Q173 641 145 608T117 518Q117 463 144 429T223 395Q274 395 301 429T329 518Z" />
<glyph unicode="&#xbb;" glyph-name="guillemotright" horiz-adv-x="499" d="M105 63L40 98L151 284L40 470L105 505L261 284L105 63ZM313 63L248 98L359 284L248 470L313 505L469 284L313 63Z" />
<glyph unicode="&#xbc;" glyph-name="onequarter" horiz-adv-x="874" d="M50 621Q88 634 125 654T189 701H238V315H168V609Q146 595 118 584T69 567L50 621ZM674 693L283 0H196L587 693H674ZM800 389V155H850V96H800V3H732V96H539V142Q553 167 575 199T623 265T678
331T736 389H800ZM732 306Q701 274 669 234T614 155H732V306Z" />
<glyph unicode="&#xbd;" glyph-name="onehalf" horiz-adv-x="874" d="M50 621Q88 634 125 654T189 701H238V315H168V609Q146 595 118 584T69 567L50 621ZM653 693L262 0H175L566 693H653ZM811 286Q811 265 802 245T776 206T739 167T694 126Q677 112 661 96T641
66H827V3H561Q558 36 565 61T587 108T621 146T661 182Q695 211 716 235T738 284Q738 310 722 322T676 334Q659 334 644 330T617 319T596 306T581 295L545 344Q562 362 596 379T676 397Q745 397 778 368T811 286Z" />
<glyph unicode="&#xbe;" glyph-name="threequarters" horiz-adv-x="874" d="M144 369Q197 369 217 385T237 428Q237 445 228 457T204 476T168 487T127 491H108V548H133Q147 548 162 550T190 559T211 575T219 601Q219 626 201 636T153 647Q126 647 103 638T63 620L38
675Q54 686 87 697T155 709Q228 709 258 680T289 604Q289 555 234 524Q269 513 289 488T310 427Q310 401 301 380T272 342T221 316T145 307Q114 307 82 314T32 330L47 390Q69 382 93 376T144 369ZM689 693L298 0H211L602 693H689ZM800 389V155H850V96H800V3H732V96H539V142Q553
167 575 199T623 265T678 331T736 389H800ZM732 306Q701 274 669 234T614 155H732V306Z" />
<glyph unicode="&#xbf;" glyph-name="questiondown" horiz-adv-x="404" d="M126 -23Q126 -61 153 -85T230 -110Q296 -110 359 -76L385 -148Q351 -166 309 -177T218 -188Q164 -188 128 -174T70 -138T38 -89T28 -34Q28 -1 40 25T72 74T112 119T153 163T184 213T197
272Q197 277 197 281T196 291H274Q278 271 278 252Q278 220 267 194T239 146T202 103T166 63T138 22T126 -23ZM163 453Q163 480 181 500T230 520Q261 520 279 500T297 453Q297 426 279 406T230 386Q199 386 181 406T163 453Z" />
<glyph unicode="&#xc0;" glyph-name="Agrave" horiz-adv-x="663" d="M549 0Q532 45 517 88T486 177H172L109 0H8Q48 110 83 203T151 381T218 541T287 693H376Q412 618 445 542T511 381T580 204T655 0H549ZM458 257Q426 344 395 425T329 582Q294 507 263 426T200
257H458ZM271 932L399 778L352 736L211 873L271 932Z" />
<glyph unicode="&#xc1;" glyph-name="Aacute" horiz-adv-x="663" d="M549 0Q532 45 517 88T486 177H172L109 0H8Q48 110 83 203T151 381T218 541T287 693H376Q412 618 445 542T511 381T580 204T655 0H549ZM458 257Q426 344 395 425T329 582Q294 507 263 426T200
257H458ZM457 873L316 736L269 778L397 932L457 873Z" />
<glyph unicode="&#xc2;" glyph-name="Acircumflex" horiz-adv-x="663" d="M549 0Q532 45 517 88T486 177H172L109 0H8Q48 110 83 203T151 381T218 541T287 693H376Q412 618 445 542T511 381T580 204T655 0H549ZM458 257Q426 344 395 425T329 582Q294 507 263 426T200
257H458ZM331 925L467 782L428 738L331 826L234 738L195 782L331 925Z" />
<glyph unicode="&#xc3;" glyph-name="Atilde" horiz-adv-x="663" d="M549 0Q532 45 517 88T486 177H172L109 0H8Q48 110 83 203T151 381T218 541T287 693H376Q412 618 445 542T511 381T580 204T655 0H549ZM458 257Q426 344 395 425T329 582Q294 507 263 426T200
257H458ZM496 867Q491 855 483 839T461 810T431 787T392 777Q372 777 355 784T321 799Q304 807 292 811T269 815Q252 815 238 801T215 771L167 795Q171 807 180 823T202 852T232 875T271 885Q291 885 308 878T342 863Q359 855 371 851T394 847Q411 847 425 861T448
891L496 867Z" />
<glyph unicode="&#xc4;" glyph-name="Adieresis" horiz-adv-x="663" d="M549 0Q532 45 517 88T486 177H172L109 0H8Q48 110 83 203T151 381T218 541T287 693H376Q412 618 445 542T511 381T580 204T655 0H549ZM458 257Q426 344 395 425T329 582Q294 507 263 426T200
257H458ZM236 772Q213 772 196 788T178 831Q178 857 195 873T236 890Q259 890 276 874T294 831Q294 805 277 789T236 772ZM426 772Q403 772 386 788T368 831Q368 857 385 873T426 890Q449 890 466 874T484 831Q484 805 467 789T426 772Z" />
<glyph unicode="&#xc5;" glyph-name="Aring" horiz-adv-x="663" d="M172 178L109 0H8Q45 102 78 190T142 358T204 510T268 653Q249 667 238 688T227 737Q227 761 235 779T258 811T290 832T330 839Q351 839 369 832T402 812T424 780T433 737Q433 710 422 690T393
655Q426 584 457 512T519 360T584 192T655 0H549Q532 45 517 89T486 178H172ZM458 257Q426 344 395 425T329 582Q294 507 263 426T200 257H458ZM383 737Q383 763 368 777T330 792Q308 792 293 778T277 737Q277 711 292 697T330 682Q352 682 367 696T383 737Z" />
<glyph unicode="&#xc6;" glyph-name="AE" horiz-adv-x="935" d="M873 612H572V403H837V324H572V81H898V0H476V178H203Q179 134 156 90T110 0H6Q63 108 117 203T224 384T326 545T427 693H873V612ZM476 617Q423 545 366 454T248 257H476V617Z" />
<glyph unicode="&#xc7;" glyph-name="Ccedilla" horiz-adv-x="620" d="M330 -11Q268 -3 218 24T133 97T78 205T58 347Q58 434 84 501T156 615T261 685T389 709Q432 709 466 703T526 689T568 673T590 661L562 581Q553 587 536 594T498 608T451 619T399 624Q344
624 300 605T225 550T178 463T161 347Q161 285 175 234T219 147T291 90T393 70Q460 70 504 84T570 109L595 29Q581 18 528 3T392 -15Q389 -21 387 -26T382 -37Q411 -51 424 -67T437 -116Q437 -127 432 -140T415 -164T383 -182T334 -189Q308 -189 287 -185T252 -176L263
-119Q275 -123 288 -126T319 -129Q355 -129 355 -106Q355 -95 344 -88T313 -72L306 -69Q310 -57 316 -41T330 -11Z" />
<glyph unicode="&#xc8;" glyph-name="Egrave" horiz-adv-x="571" d="M86 0V693H509V610H183V404H473V323H183V83H534V0H86ZM260 932L388 778L341 736L200 873L260 932Z" />
<glyph unicode="&#xc9;" glyph-name="Eacute" horiz-adv-x="571" d="M86 0V693H509V610H183V404H473V323H183V83H534V0H86ZM441 873L300 736L253 778L381 932L441 873Z" />
<glyph unicode="&#xca;" glyph-name="Ecircumflex" horiz-adv-x="571" d="M86 0V693H509V610H183V404H473V323H183V83H534V0H86ZM297 925L433 782L394 738L297 826L200 738L161 782L297 925Z" />
<glyph unicode="&#xcb;" glyph-name="Edieresis" horiz-adv-x="571" d="M86 0V693H509V610H183V404H473V323H183V83H534V0H86ZM202 772Q179 772 162 788T144 831Q144 857 161 873T202 890Q225 890 242 874T260 831Q260 805 243 789T202 772ZM392 772Q369 772 352
788T334 831Q334 857 351 873T392 890Q415 890 432 874T450 831Q450 805 433 789T392 772Z" />
<glyph unicode="&#xcc;" glyph-name="Igrave" horiz-adv-x="269" d="M86 693H183V0H86V693ZM75 932L203 778L156 736L15 873L75 932Z" />
<glyph unicode="&#xcd;" glyph-name="Iacute" horiz-adv-x="269" d="M86 693H183V0H86V693ZM256 873L115 736L68 778L196 932L256 873Z" />
<glyph unicode="&#xce;" glyph-name="Icircumflex" horiz-adv-x="269" d="M86 693H183V0H86V693ZM135 925L271 782L232 738L135 826L38 738L-1 782L135 925Z" />
<glyph unicode="&#xcf;" glyph-name="Idieresis" horiz-adv-x="269" d="M86 693H183V0H86V693ZM40 772Q17 772 0 788T-18 831Q-18 857 -1 873T40 890Q63 890 80 874T98 831Q98 805 81 789T40 772ZM230 772Q207 772 190 788T172 831Q172 857 189 873T230 890Q253
890 270 874T288 831Q288 805 271 789T230 772Z" />
<glyph unicode="&#xd0;" glyph-name="Eth" horiz-adv-x="726" d="M668 347Q668 257 640 191T561 81T439 16T283 -6Q241 -6 191 -3T99 11V324H19V399H99V683Q140 693 190 696T283 700Q368 700 439 679T561 614T640 504T668 347ZM291 79Q429 79 497 149T565 347Q565
474 497 544T291 615Q250 615 228 614T196 612V399H326V324H196V82Q205 81 227 80T291 79Z" />
<glyph unicode="&#xd1;" glyph-name="Ntilde" horiz-adv-x="728" d="M561 0Q539 37 511 83T449 178T381 279T310 377T242 467T181 541V0H86V693H163Q210 643 263 577T369 440T468 301T547 180V693H642V0H561ZM529 867Q524 855 516 839T494 810T464 787T425 777Q405
777 388 784T354 799Q337 807 325 811T302 815Q285 815 271 801T248 771L200 795Q204 807 213 823T235 852T265 875T304 885Q324 885 341 878T375 863Q392 855 404 851T427 847Q444 847 458 861T481 891L529 867Z" />
<glyph unicode="&#xd2;" glyph-name="Ograve" horiz-adv-x="778" d="M58 347Q58 436 84 504T156 617T262 686T391 709Q458 709 517 686T622 618T693 504T720 347Q720 258 694 190T622 77T518 8T391 -15Q323 -15 263 8T157 76T85 190T58 347ZM160 347Q160 284 176
233T221 145T293 90T389 70Q442 70 484 89T555 145T601 232T617 347Q617 410 601 461T556 549T484 604T389 624Q336 624 294 605T222 549T176 462T160 347ZM329 932L457 778L410 736L269 873L329 932Z" />
<glyph unicode="&#xd3;" glyph-name="Oacute" horiz-adv-x="778" d="M58 347Q58 436 84 504T156 617T262 686T391 709Q458 709 517 686T622 618T693 504T720 347Q720 258 694 190T622 77T518 8T391 -15Q323 -15 263 8T157 76T85 190T58 347ZM160 347Q160 284 176
233T221 145T293 90T389 70Q442 70 484 89T555 145T601 232T617 347Q617 410 601 461T556 549T484 604T389 624Q336 624 294 605T222 549T176 462T160 347ZM510 873L369 736L322 778L450 932L510 873Z" />
<glyph unicode="&#xd4;" glyph-name="Ocircumflex" horiz-adv-x="778" d="M58 347Q58 436 84 504T156 617T262 686T391 709Q458 709 517 686T622 618T693 504T720 347Q720 258 694 190T622 77T518 8T391 -15Q323 -15 263 8T157 76T85 190T58 347ZM160 347Q160
284 176 233T221 145T293 90T389 70Q442 70 484 89T555 145T601 232T617 347Q617 410 601 461T556 549T484 604T389 624Q336 624 294 605T222 549T176 462T160 347ZM389 925L525 782L486 738L389 826L292 738L253 782L389 925Z" />
<glyph unicode="&#xd5;" glyph-name="Otilde" horiz-adv-x="778" d="M58 347Q58 436 84 504T156 617T262 686T391 709Q458 709 517 686T622 618T693 504T720 347Q720 258 694 190T622 77T518 8T391 -15Q323 -15 263 8T157 76T85 190T58 347ZM160 347Q160 284 176
233T221 145T293 90T389 70Q442 70 484 89T555 145T601 232T617 347Q617 410 601 461T556 549T484 604T389 624Q336 624 294 605T222 549T176 462T160 347ZM554 867Q549 855 541 839T519 810T489 787T450 777Q430 777 413 784T379 799Q362 807 350 811T327 815Q310
815 296 801T273 771L225 795Q229 807 238 823T260 852T290 875T329 885Q349 885 366 878T400 863Q417 855 429 851T452 847Q469 847 483 861T506 891L554 867Z" />
<glyph unicode="&#xd6;" glyph-name="Odieresis" horiz-adv-x="778" d="M58 347Q58 436 84 504T156 617T262 686T391 709Q458 709 517 686T622 618T693 504T720 347Q720 258 694 190T622 77T518 8T391 -15Q323 -15 263 8T157 76T85 190T58 347ZM160 347Q160 284
176 233T221 145T293 90T389 70Q442 70 484 89T555 145T601 232T617 347Q617 410 601 461T556 549T484 604T389 624Q336 624 294 605T222 549T176 462T160 347ZM294 772Q271 772 254 788T236 831Q236 857 253 873T294 890Q317 890 334 874T352 831Q352 805 335
789T294 772ZM484 772Q461 772 444 788T426 831Q426 857 443 873T484 890Q507 890 524 874T542 831Q542 805 525 789T484 772Z" />
<glyph unicode="&#xd7;" glyph-name="multiply" horiz-adv-x="564" d="M428 97L282 243L136 97L80 153L226 299L80 445L136 501L282 355L428 501L484 445L338 299L484 153L428 97Z" />
<glyph unicode="&#xd8;" glyph-name="Oslash" horiz-adv-x="778" d="M58 347Q58 436 84 504T156 617T262 686T391 709Q497 709 579 653L638 730L700 684L636 601Q675 556 697 493T720 347Q720 258 694 190T622 77T518 8T391 -15Q338 -15 291 -2T202 39L144 -36L82
10L144 90Q104 135 81 199T58 347ZM160 347Q160 238 204 168L523 581Q468 624 389 624Q336 624 294 605T222 549T176 462T160 347ZM389 70Q442 70 484 89T555 145T601 232T617 347Q617 400 606 443T575 522L257 111Q310 70 389 70Z" />
<glyph unicode="&#xd9;" glyph-name="Ugrave" horiz-adv-x="688" d="M344 -15Q276 -15 226 6T144 63T97 150T81 258V693H178V269Q178 165 224 118T344 71Q381 71 411 82T464 118T498 179T510 269V693H607V258Q607 200 592 150T544 64T462 6T344 -15ZM284 932L412
778L365 736L224 873L284 932Z" />
<glyph unicode="&#xda;" glyph-name="Uacute" horiz-adv-x="688" d="M344 -15Q276 -15 226 6T144 63T97 150T81 258V693H178V269Q178 165 224 118T344 71Q381 71 411 82T464 118T498 179T510 269V693H607V258Q607 200 592 150T544 64T462 6T344 -15ZM465 873L324
736L277 778L405 932L465 873Z" />
<glyph unicode="&#xdb;" glyph-name="Ucircumflex" horiz-adv-x="688" d="M344 -15Q276 -15 226 6T144 63T97 150T81 258V693H178V269Q178 165 224 118T344 71Q381 71 411 82T464 118T498 179T510 269V693H607V258Q607 200 592 150T544 64T462 6T344 -15ZM344
925L480 782L441 738L344 826L247 738L208 782L344 925Z" />
<glyph unicode="&#xdc;" glyph-name="Udieresis" horiz-adv-x="688" d="M344 -15Q276 -15 226 6T144 63T97 150T81 258V693H178V269Q178 165 224 118T344 71Q381 71 411 82T464 118T498 179T510 269V693H607V258Q607 200 592 150T544 64T462 6T344 -15ZM249 772Q226
772 209 788T191 831Q191 857 208 873T249 890Q272 890 289 874T307 831Q307 805 290 789T249 772ZM439 772Q416 772 399 788T381 831Q381 857 398 873T439 890Q462 890 479 874T497 831Q497 805 480 789T439 772Z" />
<glyph unicode="&#xdd;" glyph-name="Yacute" horiz-adv-x="598" d="M251 0V278Q182 385 121 489T6 693H120Q158 611 205 527T302 364Q351 442 398 526T484 693H592Q538 593 477 490T348 280V0H251ZM421 873L280 736L233 778L361 932L421 873Z" />
<glyph unicode="&#xde;" glyph-name="Thorn" horiz-adv-x="609" d="M183 222H256Q306 222 346 228T413 251T456 294T471 363Q471 403 456 429T412 471T345 493T259 499Q241 499 222 499T183 497V222ZM183 693V580Q202 582 222 582T262 583Q573 583 573 362Q573
302 552 261T490 193T391 154T260 142H183V0H86V693H183Z" />
<glyph unicode="&#xdf;" glyph-name="germandbls" horiz-adv-x="623" d="M498 616Q498 591 491 572T474 536T451 505T427 479Q404 454 388 438T372 396Q372 381 379 370T399 351T425 336T455 322Q482 309 505 294T546 260T573 214T583 150Q583 72 535 30T384 -12Q363
-12 342 -9T303 -2T272 8T252 16L268 97Q274 94 286 89T315 79T351 71T391 67Q441 67 465 89T489 148Q489 187 466 212T386 263Q353 278 332 291T298 319T281 348T276 383Q276 423 298 450T345 503Q355 513 365 525T385 549T399 575T405 602Q405 646 379 670T301
695Q234 695 204 657T173 552V0H80V554Q80 604 94 645T135 715T202 760T294 776Q348 776 387 764T450 731T486 680T498 616Z" />
<glyph unicode="&#xe0;" glyph-name="agrave" horiz-adv-x="522" d="M256 67Q289 67 314 68T357 74V229Q347 234 325 237T270 241Q249 241 226 238T183 226T150 200T137 156Q137 106 169 87T256 67ZM248 533Q304 533 342 519T404 478T438 415T448 334V9Q436 7
415 4T366 -3T308 -8T245 -11Q201 -11 164 -2T100 26T58 78T43 155Q43 198 60 229T108 279T178 307T262 316Q276 316 291 315T319 311T343 306T357 303V329Q357 352 352 374T334 414T299 442T240 453Q194 453 160 447T108 433L97 510Q115 518 157 525T248 533ZM203
776L331 622L284 580L143 717L203 776Z" />
<glyph unicode="&#xe1;" glyph-name="aacute" horiz-adv-x="522" d="M256 67Q289 67 314 68T357 74V229Q347 234 325 237T270 241Q249 241 226 238T183 226T150 200T137 156Q137 106 169 87T256 67ZM248 533Q304 533 342 519T404 478T438 415T448 334V9Q436 7
415 4T366 -3T308 -8T245 -11Q201 -11 164 -2T100 26T58 78T43 155Q43 198 60 229T108 279T178 307T262 316Q276 316 291 315T319 311T343 306T357 303V329Q357 352 352 374T334 414T299 442T240 453Q194 453 160 447T108 433L97 510Q115 518 157 525T248 533ZM384
717L243 580L196 622L324 776L384 717Z" />
<glyph unicode="&#xe2;" glyph-name="acircumflex" horiz-adv-x="522" d="M256 67Q289 67 314 68T357 74V229Q347 234 325 237T270 241Q249 241 226 238T183 226T150 200T137 156Q137 106 169 87T256 67ZM248 533Q304 533 342 519T404 478T438 415T448 334V9Q436
7 415 4T366 -3T308 -8T245 -11Q201 -11 164 -2T100 26T58 78T43 155Q43 198 60 229T108 279T178 307T262 316Q276 316 291 315T319 311T343 306T357 303V329Q357 352 352 374T334 414T299 442T240 453Q194 453 160 447T108 433L97 510Q115 518 157 525T248 533ZM263
769L399 626L360 582L263 670L166 582L127 626L263 769Z" />
<glyph unicode="&#xe3;" glyph-name="atilde" horiz-adv-x="522" d="M256 67Q289 67 314 68T357 74V229Q347 234 325 237T270 241Q249 241 226 238T183 226T150 200T137 156Q137 106 169 87T256 67ZM248 533Q304 533 342 519T404 478T438 415T448 334V9Q436 7
415 4T366 -3T308 -8T245 -11Q201 -11 164 -2T100 26T58 78T43 155Q43 198 60 229T108 279T178 307T262 316Q276 316 291 315T319 311T343 306T357 303V329Q357 352 352 374T334 414T299 442T240 453Q194 453 160 447T108 433L97 510Q115 518 157 525T248 533ZM428
711Q423 699 415 683T393 654T363 631T324 621Q304 621 287 628T253 643Q236 651 224 655T201 659Q184 659 170 645T147 615L99 639Q103 651 112 667T134 696T164 719T203 729Q223 729 240 722T274 707Q291 699 303 695T326 691Q343 691 357 705T380 735L428 711Z"
/>
<glyph unicode="&#xe4;" glyph-name="adieresis" horiz-adv-x="522" d="M256 67Q289 67 314 68T357 74V229Q347 234 325 237T270 241Q249 241 226 238T183 226T150 200T137 156Q137 106 169 87T256 67ZM248 533Q304 533 342 519T404 478T438 415T448 334V9Q436
7 415 4T366 -3T308 -8T245 -11Q201 -11 164 -2T100 26T58 78T43 155Q43 198 60 229T108 279T178 307T262 316Q276 316 291 315T319 311T343 306T357 303V329Q357 352 352 374T334 414T299 442T240 453Q194 453 160 447T108 433L97 510Q115 518 157 525T248 533ZM168
616Q145 616 128 632T110 675Q110 701 127 717T168 734Q191 734 208 718T226 675Q226 649 209 633T168 616ZM358 616Q335 616 318 632T300 675Q300 701 317 717T358 734Q381 734 398 718T416 675Q416 649 399 633T358 616Z" />
<glyph unicode="&#xe5;" glyph-name="aring" horiz-adv-x="522" d="M256 67Q289 67 314 68T357 74V229Q347 234 325 237T270 241Q249 241 226 238T183 226T150 200T137 156Q137 106 169 87T256 67ZM248 533Q304 533 342 519T404 478T438 415T448 334V9Q436 7 415
4T366 -3T308 -8T245 -11Q201 -11 164 -2T100 26T58 78T43 155Q43 198 60 229T108 279T178 307T262 316Q276 316 291 315T319 311T343 306T357 303V329Q357 352 352 374T334 414T299 442T240 453Q194 453 160 447T108 433L97 510Q115 518 157 525T248 533ZM366
677Q366 653 358 635T335 603T303 582T263 575Q242 575 224 582T191 602T169 634T160 677Q160 701 168 719T191 751T223 772T263 779Q284 779 302 772T335 752T357 720T366 677ZM316 677Q316 703 301 717T263 732Q241 732 226 718T210 677Q210 651 225 637T263
622Q285 622 300 636T316 677Z" />
<glyph unicode="&#xe6;" glyph-name="ae" horiz-adv-x="859" d="M613 -12Q556 -12 514 1T439 41Q429 34 413 25T373 8T322 -6T259 -12Q209 -12 170 -3T102 26T59 78T44 155Q44 198 61 229T109 279T179 307T263 316Q277 316 292 315T320 311T343 306T357 303V329Q357
352 352 374T334 414T299 442T240 453Q194 453 160 447T108 433L97 510Q115 518 156 525T246 533Q315 533 355 510T416 444Q449 489 494 511T588 533Q692 533 748 467T805 268Q805 260 805 255T804 244V235H448Q454 155 495 113T623 70Q672 70 705 78T756 95L769
17Q752 8 710 -2T613 -12ZM261 67Q313 67 343 78T389 101Q374 129 366 161T356 229Q345 234 324 237T271 241Q250 241 227 238T184 226T151 200T138 156Q138 105 170 86T261 67ZM708 310Q709 373 677 413T587 454Q555 454 531 442T490 409T463 363T450 310H708Z"
/>
<glyph unicode="&#xe7;" glyph-name="ccedilla" horiz-adv-x="465" d="M318 -12L307 -37Q336 -51 349 -67T362 -116Q362 -127 357 -140T340 -164T308 -182T259 -189Q233 -189 212 -185T177 -176L188 -119Q200 -123 213 -126T244 -129Q280 -129 280 -106Q280 -95
269 -88T238 -72L231 -69Q235 -57 242 -40T257 -8Q206 -1 168 21T103 79T64 159T51 259Q51 319 68 369T118 455T196 512T300 533Q335 533 370 527T437 508L416 429Q395 439 368 445T309 451Q231 451 190 402T148 259Q148 217 157 182T187 122T240 84T318 70Q355
70 385 77T432 92L445 14Q437 10 424 6T393 -2T357 -8T318 -12Z" />
<glyph unicode="&#xe8;" glyph-name="egrave" horiz-adv-x="559" d="M51 259Q51 328 71 379T124 465T200 516T288 533Q393 533 449 468T505 268Q505 262 505 253T504 235H148Q154 154 195 112T323 70Q372 70 405 78T456 95L469 17Q452 8 410 -2T313 -12Q245 -12
196 8T114 65T67 150T51 259ZM408 310Q409 373 377 413T287 454Q255 454 231 442T189 409T163 363T150 310H408ZM226 776L354 622L307 580L166 717L226 776Z" />
<glyph unicode="&#xe9;" glyph-name="eacute" horiz-adv-x="559" d="M51 259Q51 328 71 379T124 465T200 516T288 533Q393 533 449 468T505 268Q505 262 505 253T504 235H148Q154 154 195 112T323 70Q372 70 405 78T456 95L469 17Q452 8 410 -2T313 -12Q245 -12
196 8T114 65T67 150T51 259ZM408 310Q409 373 377 413T287 454Q255 454 231 442T189 409T163 363T150 310H408ZM407 717L266 580L219 622L347 776L407 717Z" />
<glyph unicode="&#xea;" glyph-name="ecircumflex" horiz-adv-x="559" d="M51 259Q51 328 71 379T124 465T200 516T288 533Q393 533 449 468T505 268Q505 262 505 253T504 235H148Q154 154 195 112T323 70Q372 70 405 78T456 95L469 17Q452 8 410 -2T313 -12Q245
-12 196 8T114 65T67 150T51 259ZM408 310Q409 373 377 413T287 454Q255 454 231 442T189 409T163 363T150 310H408ZM286 769L422 626L383 582L286 670L189 582L150 626L286 769Z" />
<glyph unicode="&#xeb;" glyph-name="edieresis" horiz-adv-x="559" d="M51 259Q51 328 71 379T124 465T200 516T288 533Q393 533 449 468T505 268Q505 262 505 253T504 235H148Q154 154 195 112T323 70Q372 70 405 78T456 95L469 17Q452 8 410 -2T313 -12Q245
-12 196 8T114 65T67 150T51 259ZM408 310Q409 373 377 413T287 454Q255 454 231 442T189 409T163 363T150 310H408ZM191 616Q168 616 151 632T133 675Q133 701 150 717T191 734Q214 734 231 718T249 675Q249 649 232 633T191 616ZM381 616Q358 616 341 632T323
675Q323 701 340 717T381 734Q404 734 421 718T439 675Q439 649 422 633T381 616Z" />
<glyph unicode="&#xec;" glyph-name="igrave" horiz-adv-x="253" d="M173 0H80V520H173V0ZM323 776L451 622L404 580L263 717L323 776Z" />
<glyph unicode="&#xed;" glyph-name="iacute" horiz-adv-x="253" d="M173 0H80V520H173V0ZM504 717L363 580L316 622L444 776L504 717Z" />
<glyph unicode="&#xee;" glyph-name="icircumflex" horiz-adv-x="253" d="M173 0H80V520H173V0ZM383 769L519 626L480 582L383 670L286 582L247 626L383 769Z" />
<glyph unicode="&#xef;" glyph-name="idieresis" horiz-adv-x="253" d="M173 0H80V520H173V0ZM288 616Q265 616 248 632T230 675Q230 701 247 717T288 734Q311 734 328 718T346 675Q346 649 329 633T288 616ZM478 616Q455 616 438 632T420 675Q420 701 437 717T478
734Q501 734 518 718T536 675Q536 649 519 633T478 616Z" />
<glyph unicode="&#xf0;" glyph-name="eth" horiz-adv-x="589" d="M564 657L457 620Q489 566 511 494T533 328Q533 262 522 201T482 92T407 16T287 -13Q228 -13 184 9T110 67T66 150T51 248Q51 304 67 349T114 425T187 473T285 490Q336 490 374 474T430 444Q418
524 375 592L255 551L232 614L334 649Q301 688 250 725L309 776Q331 762 359 738T417 677L541 720L564 657ZM438 325Q438 333 438 341T437 357Q403 387 366 398T297 409Q256 409 228 397T181 362T155 311T146 248Q146 212 155 180T181 123T225 84T287 69Q333 69
362 91T408 149T431 231T438 325Z" />
<glyph unicode="&#xf1;" glyph-name="ntilde" horiz-adv-x="574" d="M80 505Q112 513 165 522T287 531Q349 531 390 514T455 465T490 389T500 292V0H407V272Q407 320 401 354T379 409T339 439T277 449Q262 449 246 448T216 446T190 442T173 439V0H80V505ZM455
711Q450 699 442 683T420 654T390 631T351 621Q331 621 314 628T280 643Q263 651 251 655T228 659Q211 659 197 645T174 615L126 639Q130 651 139 667T161 696T191 719T230 729Q250 729 267 722T301 707Q318 699 330 695T353 691Q370 691 384 705T407 735L455 711Z"
/>
<glyph unicode="&#xf2;" glyph-name="ograve" horiz-adv-x="590" d="M539 260Q539 198 521 148T471 62T393 7T295 -13Q242 -13 197 6T120 62T69 148T51 260Q51 321 69 371T119 458T197 513T295 533Q348 533 393 514T470 458T521 372T539 260ZM442 260Q442 348
403 399T295 451Q227 451 188 400T148 260Q148 172 187 121T295 69Q363 69 402 120T442 260ZM235 776L363 622L316 580L175 717L235 776Z" />
<glyph unicode="&#xf3;" glyph-name="oacute" horiz-adv-x="590" d="M539 260Q539 198 521 148T471 62T393 7T295 -13Q242 -13 197 6T120 62T69 148T51 260Q51 321 69 371T119 458T197 513T295 533Q348 533 393 514T470 458T521 372T539 260ZM442 260Q442 348
403 399T295 451Q227 451 188 400T148 260Q148 172 187 121T295 69Q363 69 402 120T442 260ZM416 717L275 580L228 622L356 776L416 717Z" />
<glyph unicode="&#xf4;" glyph-name="ocircumflex" horiz-adv-x="590" d="M539 260Q539 198 521 148T471 62T393 7T295 -13Q242 -13 197 6T120 62T69 148T51 260Q51 321 69 371T119 458T197 513T295 533Q348 533 393 514T470 458T521 372T539 260ZM442 260Q442
348 403 399T295 451Q227 451 188 400T148 260Q148 172 187 121T295 69Q363 69 402 120T442 260ZM295 769L431 626L392 582L295 670L198 582L159 626L295 769Z" />
<glyph unicode="&#xf5;" glyph-name="otilde" horiz-adv-x="590" d="M539 260Q539 198 521 148T471 62T393 7T295 -13Q242 -13 197 6T120 62T69 148T51 260Q51 321 69 371T119 458T197 513T295 533Q348 533 393 514T470 458T521 372T539 260ZM442 260Q442 348
403 399T295 451Q227 451 188 400T148 260Q148 172 187 121T295 69Q363 69 402 120T442 260ZM460 711Q455 699 447 683T425 654T395 631T356 621Q336 621 319 628T285 643Q268 651 256 655T233 659Q216 659 202 645T179 615L131 639Q135 651 144 667T166 696T196
719T235 729Q255 729 272 722T306 707Q323 699 335 695T358 691Q375 691 389 705T412 735L460 711Z" />
<glyph unicode="&#xf6;" glyph-name="odieresis" horiz-adv-x="590" d="M539 260Q539 198 521 148T471 62T393 7T295 -13Q242 -13 197 6T120 62T69 148T51 260Q51 321 69 371T119 458T197 513T295 533Q348 533 393 514T470 458T521 372T539 260ZM442 260Q442 348
403 399T295 451Q227 451 188 400T148 260Q148 172 187 121T295 69Q363 69 402 120T442 260ZM200 616Q177 616 160 632T142 675Q142 701 159 717T200 734Q223 734 240 718T258 675Q258 649 241 633T200 616ZM390 616Q367 616 350 632T332 675Q332 701 349 717T390
734Q413 734 430 718T448 675Q448 649 431 633T390 616Z" />
<glyph unicode="&#xf7;" glyph-name="divide" horiz-adv-x="564" d="M282 45Q257 45 240 61T222 106Q222 134 239 150T282 167Q307 167 324 151T342 106Q342 78 325 62T282 45ZM282 431Q257 431 240 447T222 492Q222 520 239 536T282 553Q307 553 324 537T342
492Q342 464 325 448T282 431ZM53 339H511V260H53V339Z" />
<glyph unicode="&#xf8;" glyph-name="oslash" horiz-adv-x="590" d="M480 445Q508 410 523 364T539 260Q539 198 521 148T471 62T393 7T295 -13Q216 -13 158 28L109 -36L56 4L110 74Q82 109 67 156T51 260Q51 321 69 371T119 458T197 513T295 533Q334 533 368
522T432 491L481 555L534 515L480 445ZM147 260Q147 195 168 150L380 424Q344 452 295 452Q226 452 187 401T147 260ZM443 260Q443 322 421 369L210 95Q244 68 295 68Q364 68 403 119T443 260Z" />
<glyph unicode="&#xf9;" glyph-name="ugrave" horiz-adv-x="574" d="M494 15Q462 7 410 -2T288 -11Q228 -11 187 6T121 56T85 131T74 228V520H167V248Q167 153 197 112T298 71Q313 71 329 72T359 74T384 77T401 81V520H494V15ZM224 776L352 622L305 580L164 717L224 776Z" />
<glyph unicode="&#xfa;" glyph-name="uacute" horiz-adv-x="574" d="M494 15Q462 7 410 -2T288 -11Q228 -11 187 6T121 56T85 131T74 228V520H167V248Q167 153 197 112T298 71Q313 71 329 72T359 74T384 77T401 81V520H494V15ZM405 717L264 580L217 622L345 776L405 717Z" />
<glyph unicode="&#xfb;" glyph-name="ucircumflex" horiz-adv-x="574" d="M494 15Q462 7 410 -2T288 -11Q228 -11 187 6T121 56T85 131T74 228V520H167V248Q167 153 197 112T298 71Q313 71 329 72T359 74T384 77T401 81V520H494V15ZM284 769L420 626L381 582L284
670L187 582L148 626L284 769Z" />
<glyph unicode="&#xfc;" glyph-name="udieresis" horiz-adv-x="574" d="M494 15Q462 7 410 -2T288 -11Q228 -11 187 6T121 56T85 131T74 228V520H167V248Q167 153 197 112T298 71Q313 71 329 72T359 74T384 77T401 81V520H494V15ZM189 616Q166 616 149 632T131
675Q131 701 148 717T189 734Q212 734 229 718T247 675Q247 649 230 633T189 616ZM379 616Q356 616 339 632T321 675Q321 701 338 717T379 734Q402 734 419 718T437 675Q437 649 420 633T379 616Z" />
<glyph unicode="&#xfd;" glyph-name="yacute" horiz-adv-x="497" d="M19 -97Q30 -102 47 -106T82 -111Q137 -111 168 -87T224 -7Q161 113 107 247T16 520H116Q127 475 142 423T177 316T218 206T264 100Q302 205 330 308T383 520H479Q443 373 399 238T304 -16Q284
-61 263 -93T215 -147T157 -178T83 -188Q72 -188 60 -187T37 -183T16 -177T2 -172L19 -97ZM382 717L241 580L194 622L322 776L382 717Z" />
<glyph unicode="&#xfe;" glyph-name="thorn" horiz-adv-x="589" d="M441 259Q441 350 396 399T276 449Q261 449 245 447T215 443T189 437T173 432V110Q190 96 222 83T292 70Q332 70 360 84T407 124T433 184T441 259ZM538 259Q538 200 523 150T477 64T404 8T304
-12Q259 -12 225 0T173 23V-185H80V760L173 776V511Q199 520 227 525T282 531Q339 531 386 512T467 458T519 373T538 259Z" />
<glyph unicode="&#xff;" glyph-name="ydieresis" horiz-adv-x="497" d="M19 -97Q30 -102 47 -106T82 -111Q137 -111 168 -87T224 -7Q161 113 107 247T16 520H116Q127 475 142 423T177 316T218 206T264 100Q302 205 330 308T383 520H479Q443 373 399 238T304 -16Q284
-61 263 -93T215 -147T157 -178T83 -188Q72 -188 60 -187T37 -183T16 -177T2 -172L19 -97ZM166 616Q143 616 126 632T108 675Q108 701 125 717T166 734Q189 734 206 718T224 675Q224 649 207 633T166 616ZM356 616Q333 616 316 632T298 675Q298 701 315 717T356
734Q379 734 396 718T414 675Q414 649 397 633T356 616Z" />
<glyph unicode="&#x2013;" glyph-name="endash" horiz-adv-x="496" d="M-2 339H498V260H-2V339Z" />
<glyph unicode="&#x2014;" glyph-name="emdash" horiz-adv-x="996" d="M-2 339H998V260H-2V339Z" />
<glyph unicode="&#x2018;" glyph-name="quoteleft" horiz-adv-x="235" d="M60 520Q60 531 60 541T61 562Q65 614 84 665T130 760L202 737Q181 693 171 648T160 564Q160 554 160 543T162 520H60Z" />
<glyph unicode="&#x2019;" glyph-name="quoteright" horiz-adv-x="235" d="M175 750Q175 739 175 729T174 708Q170 656 151 606T105 510L33 533Q54 578 64 622T75 706Q75 716 75 727T73 750H175Z" />
<glyph unicode="&#x201a;" glyph-name="quotesinglbase" horiz-adv-x="235" d="M175 114Q175 103 175 93T174 72Q170 20 151 -31T105 -126L33 -103Q54 -59 64 -14T75 70Q75 80 75 91T73 114H175Z" />
<glyph unicode="&#x201c;" glyph-name="quotedblleft" horiz-adv-x="417" d="M60 520Q60 531 60 541T61 562Q65 614 84 665T130 760L202 737Q181 693 171 648T160 564Q160 554 160 543T162 520H60ZM242 520Q242 531 242 541T243 562Q247 614 266 665T312 760L384
737Q363 693 353 648T342 564Q342 554 342 543T344 520H242Z" />
<glyph unicode="&#x201d;" glyph-name="quotedblright" horiz-adv-x="417" d="M175 750Q175 739 175 729T174 708Q170 656 151 606T105 510L33 533Q54 578 64 622T75 706Q75 716 75 727T73 750H175ZM357 750Q357 739 357 729T356 708Q352 656 333 606T287 510L215
533Q236 578 246 622T257 706Q257 716 257 727T255 750H357Z" />
<glyph unicode="&#x201e;" glyph-name="quotedblbase" horiz-adv-x="417" d="M175 114Q175 103 175 93T174 72Q170 20 151 -31T105 -126L33 -103Q54 -59 64 -14T75 70Q75 80 75 91T73 114H175ZM357 114Q357 103 357 93T356 72Q352 20 333 -31T287 -126L215 -103Q236
-59 246 -14T257 70Q257 80 257 91T255 114H357Z" />
<glyph unicode="&#x2022;" glyph-name="bullet" horiz-adv-x="360" d="M308 353Q308 327 299 304T274 264T234 237T180 226Q150 226 127 236T87 264T61 304T52 353Q52 378 61 401T86 442T126 469T180 480Q210 480 233 470T273 442T299 402T308 353Z" />
<glyph unicode="&#x2039;" glyph-name="guilsinglleft" horiz-adv-x="291" d="M30 284L186 505L251 470L140 284L251 98L186 63L30 284Z" />
<glyph unicode="&#x203a;" glyph-name="guilsinglright" horiz-adv-x="291" d="M105 63L40 98L151 284L40 470L105 505L261 284L105 63Z" />
</font>
</defs>
</svg>
